18+ Private Specials 221 Teen Couples 12 XXX 2018 Porn Movies WEBRip x264 AAC with Sample ☻rDX☻

seeders: 30
leechers: 24
updated:
Added by nehalpuja in XXX > Video

Download Fast Safe Anonymous
movies, software, shows...
  • Downloads: 54
  • Language: English

Files

18+ Private Specials 221 Teen Couples 12 XXX 2018 Porn Movies WEBRip x264 AAC with Sample ☻rDX☻
  • Sample ~ 18+ Private Specials 221 Teen Couples 12 XXX 2018 Porn Movies WEBRip x264 AAC ☻rDX☻.mkv (7.0 MB)
  • 18+ Private Specials 221 Teen Couples 12 XXX 2018 Porn Movies WEBRip x264 AAC ☻rDX☻.mkv (705.2 MB)

Description

18+ Private Specials 221 Teen Couples 12 XXX 2018 Porn Movies WEBRip x264 AAC with Sample ☻rDX☻
===============================================================================================

SCREEN SHOTS:





or

http://iphonehosting.eu/2018/11/a/desktop/1.html


File size : 705 MiB
Duration : 2 h 2 min
Overall bit rate mode : Constant
Overall bit rate : 804 kb/s
Movie name : 18+ Private Specials 221 Teen Couples 12 XXX 2018 Porn Movies WEBRip x264 AAC ☻rDX☻

Video
ID : 2
Format : AVC
Format/Info : Advanced Video Codec
Format profile : [email protected]
Format settings, CABAC : Yes
Format settings, ReFrames : 2 frames
Format settings, GOP : M=1, N=12
Codec ID : V_MPEG4/ISO/AVC
Duration : 2 h 2 min
Bit rate mode : Constant
Bit rate : 741 kb/s
Width : 700 pixels
Height : 394 pixels
Display aspect ratio : 16:9
Frame rate mode : Constant
Frame rate : 25.000 FPS
Color space : YUV
Chroma subsampling : 4:2:0
Bit depth : 8 bits
Scan type : Progressive
Bits/(Pixel*Frame) : 0.107
Stream size : 635 MiB (90%)
Title : ☻rDX☻
Language : English
Default : Yes
Forced : No

Audio
ID : 1
Format : MPEG Audio
Format version : Version 1
Format profile : Layer 3
Mode : Joint stereo
Mode extension : MS Stereo
Codec ID : A_MPEG/L3
Codec ID/Hint : MP3
Duration : 2 h 2 min
Bit rate mode : Constant
Bit rate : 64.0 kb/s
Channel(s) : 2 channels
Sampling rate : 44.1 kHz
Compression mode : Lossy
Stream size : 56.1 MiB (8%)
Title : ☻rDX☻
Default : Yes
Forced : No




Download torrent
712.2 MB
seeders:30
leechers:24
18+ Private Specials 221 Teen Couples 12 XXX 2018 Porn Movies WEBRip x264 AAC with Sample ☻rDX☻


Trackers

tracker name
udp://tracker.coppersurfer.tk:6969/announce
udp://tracker.leechers-paradise.org:6969/announce
udp://tracker.pirateparty.gr:6969/announce
udp://eddie4.nl:6969/announce
udp://tracker.zer0day.to:1337/announce
udp://9.rarbg.me:2710/announce
udp://9.rarbg.to:2710/announce
udp://public.popcorn-tracker.org:6969/announce
udp://p4p.arenabg.ch:1337/announce
udp://tracker.vanitycore.co:6969/announce
udp://ipv4.tracker.harry.lu:80/announce
udp://tracker.opentrackr.org:1337/announce
udp://p4p.arenabg.com:1337/announce
udp://shadowshq.yi.org:6969/announce
µTorrent compatible trackers list

Download torrent
712.2 MB
seeders:30
leechers:24
18+ Private Specials 221 Teen Couples 12 XXX 2018 Porn Movies WEBRip x264 AAC with Sample ☻rDX☻


Torrent hash: 3E96D5D4207E61C0BB90086FF50593683E0D753F