Ashes in the Snow (2018) 720p WEB-DL x265 HEVC (ESUB) - ENX265

seeders: 0
leechers: 0
updated:
Added by ENX265 in Movies > HEVC/x265

Download Fast Safe Anonymous
movies, software, shows...
Summary:

The coming-of-age tale of 16-year-old Lina Vilkas who is deported to Siberia amid Stalin's reign of terror in the Baltic region during WWII. An aspiring artist, she secretly documents her harrowing journey with her drawings.

Files

[Enx265.Com] - Ashes.In.The.Snow.2018.720P.Web-Dl.x265.hevc.6ch
  • [Enx265.Com] - Ashes.In.The.Snow.2018.720P.Web-Dl.x265.hevc.6ch.mkv (593.2 MB)
  • Enx265.Com.txt (0.1 KB)

Description



Please post your requests at

ENX265.Com

Soures : Ashes.in.the.Snow.2018.1080p.WEB-DL.DD5.1.H264-FGT - Thank

Download Sample
http://enx265.com/ashes-in-the-snow-2018-720p-10bit-web-dl-2/

Code:

General

Format : Matroska
Format version : Version 4
File size : 593 MiB
Duration : 1 h 41 min
Overall bit rate : 820 kb/s
Movie name : Ashes.in.the.Snow.2018.1080p.WEB-DL.DD5.1.H264-FGT
Encoded date : UTC 2019-01-11 17:48:59
Writing application : mkvmerge v9.5.0 ('Quiet Fire') 64bit
Writing library : libebml v1.3.4 + libmatroska v1.4.5 / Lavf58.20.100

Video

ID : 1
Format : HEVC
Format/Info : High Efficiency Video Coding
Format profile : Main [email protected]@Main
Codec ID : V_MPEGH/ISO/HEVC
Duration : 1 h 41 min
Bit rate : 499 kb/s
Width : 1 280 pixels
Height : 688 pixels
Display aspect ratio : 1.85:1
Frame rate mode : Constant
Frame rate : 23.976 (24000/1001) FPS
Color space : YUV
Chroma subsampling : 4:2:0
Bit depth : 10 bits
Bits/(Pixel*Frame) : 0.024
Stream size : 361 MiB (61%)
Writing library : x265 2.9:[Windows][GCC 7.1.0][64 bit] 10bit
Default : Yes
Forced : No
Color range : Limited
Color primaries : BT.709
Transfer characteristics : BT.709
Matrix coefficients : BT.709

Audio

ID : 2
Format : AAC LC
Format/Info : Advanced Audio Codec Low Complexity
Codec ID : A_AAC-2
Duration : 1 h 41 min
Bit rate : 319 kb/s
Channel(s) : 6 channels
Channel layout : L R C Cb Rls Rb
Sampling rate : 48.0 kHz
Frame rate : 46.875 FPS (1024 SPF)
Compression mode : Lossy
Delay relative to video : -63 ms
Stream size : 231 MiB (39%)
Title : Surround
Language : English
Default : No
Forced : No


Related Torrents

torrent name size uploader age seed leech
862.8 MB YTSAGx 5
days
1008 683
1638.4 GB YTSAGx 5
days
939 517
802.5 MB MkvCage 5
days
306 55
3891.2 GB Trige 5
days
108 46
3891.2 GB EtHD 5
days
41 32


Download torrent
593.2 MB
seeders:0
leechers:0
Ashes in the Snow (2018) 720p WEB-DL x265 HEVC (ESUB) - ENX265


Trackers

tracker name
udp://tracker.coppersurfer.tk:6969/announce
µTorrent compatible trackers list

Download torrent
593.2 MB
seeders:0
leechers:0
Ashes in the Snow (2018) 720p WEB-DL x265 HEVC (ESUB) - ENX265


Torrent hash: 6AB9D9ABFDD27DCD5063D99A2BA0CB97FA749E88