Afsar (2018) Punjabi 720p WEB-DL x264 AC3 5.1 ESub-Sun George

seeders: 6
leechers: 8
updated:
Added by Sungeorge in Movies > HD

Download Fast Safe Anonymous
movies, software, shows...
Summary:

Jaspal, a government employee, falls in love with Harman, a school teacher, and wants to marry her. Harman's father withholds his consent because he wants his daughter to marry a Patwari and pressures Jaspal to do whatever it takes to achieve it.

Files

Afsar (2018) Punjabi 720p WEB-DL x264 AC3 5.1 ESub-Sun George
  • Afsar (2018) Punjabi 720p WEB-DL x264 AC3 5.1 ESub-Sun George.mkv (1.7 GB)
  • Sample Afsar (2018) Punjabi 720p WEB-DL x264 AC3 5.1 ESub-Sun George.mkv (29.0 MB)
  • FilmMaza.Org – Download Movies For Free.url (0.1 KB)

Description

Afsar (2018) Punjabi 720p WEB-DL x264 AC3 5.1 ESub-Sun George






http://www.imdb.com/title/tt8765700/









For Direct Links Visit: http://FilmMaza.Org














===================================================================


Source : Telly (Thanks)


General
Format : Matroska
Format version : Version 4 / Version 2
File size : 1.66 GiB
Duration : 2 h 6 min
Overall bit rate : 1 878 kb/s
Movie name: Afsar (2018) Punjabi 720p WEB-DL x264 AC3 5.1 ESub-Sun George


===================================================================


Video
ID : 1
Format : AVC
Format/Info : Advanced Video Codec
Format profile : [email protected]
Format settings : CABAC / 4 Ref Frames
Format settings, CABAC : Yes
Format settings, RefFrames : 4 frames
Codec ID : V_MPEG4/ISO/AVC
Duration : 2 h 6 min
Bit rate : 1 500 kb/s
Width : 1 280 pixels
Height : 544 pixels
Display aspect ratio : 2.35:1
Frame rate mode : Variable
Frame rate : 24.000 FPS
Color space : YUV
Chroma subsampling : 4:2:0
Bit depth : 8 bits
Scan type : Progressive
Bits/(Pixel*Frame) : 0.090
Stream size : 1.32 GiB (79%)
Title : Sun George


===================================================================


Audio
ID : 2
Format : AC-3
Format/Info : Audio Coding 3
Codec ID : A_AC3
Duration : 2 h 6 min
Bit rate mode : Constant
Bit rate : 384 kb/s
Channel(s) : 6 channels
Channel positions : Front: L C R, Side: L R, LFE
Sampling rate : 48.0 kHz
Frame rate : 31.250 FPS (1536 SPF)
Bit depth : 16 bits
Compression mode : Lossy
Stream size : 348 MiB (20%)
Title : Punjabi-Sun George
Language : Panjabi
Service kind : Complete Main
Default : Yes
Forced : No

Text
ID : 3
Format : ASS
Codec ID : S_TEXT/ASS
Codec ID/Info : Advanced Sub Station Alpha
Duration : 2 h 4 min
Bit rate : 118 b/s
Count of elements : 2008
Compression mode : Lossless
Stream size : 108 KiB (0%)
Title : Sun George
Writing library : Lavc57.42.100 ssa
Language : English
Default : Yes
Forced : Yes
















Related Torrents

torrent name size uploader age seed leech
2.8 GB Movienow7 17
days
112 139
986.5 MB downloadhub 17
days
83 129
1.1 GB mkvCinemas 6
days
46 85
991.9 MB UnknownStar 6
days
41 33
995.3 MB downloadhub 6
days
18 48


Download torrent
1740.8 GB
seeders:6
leechers:8
Afsar (2018) Punjabi 720p WEB-DL x264 AC3 5.1 ESub-Sun George


Trackers

tracker name
udp://tracker.pirateparty.gr:6969/announce
udp://tracker.tiny-vps.com:6969/announce
udp://open.stealth.si:80/announce
udp://tracker.opentrackr.org:1337/announce
udp://tracker.internetwarriors.net:1337/announce
udp://9.rarbg.to:2710/announce
udp://tracker1.itzmx.com:8080/announce
udp://9.rarbg.me:2740/announce
udp://thetracker.org:80/announce
udp://tracker.coppersurfer.tk:6969/announce
http://tracker.fastdownload.xyz:443/announce
udp://torrentclub.tech:6969/announce
udp://open.demonii.si:1337/announce
http://seeders-paradise.org:443/announce
http://share.camoe.cn:8080/announce
µTorrent compatible trackers list

Download torrent
1740.8 GB
seeders:6
leechers:8
Afsar (2018) Punjabi 720p WEB-DL x264 AC3 5.1 ESub-Sun George


Torrent hash: EBC058B3A707A25EE10F086EA54CEE868DB218E8